Ffmpeg Audio Pts






































4) obs builds, and the frame pts/dts are being set properly. Hls Fragment Hls Fragment. This command will make the video 8x (1/8) faster or use setpts=4*PTS to make the video 4x slower. el7_0 @base re2c. To increase video play back speed command line is: $ ffmpeg -i video. mka ffmpeg -i test. Last time we added audio support by taking advantage of SDL's audio functions. This is due to ffmpeg's behavior, as has been discussed in detail in #26, #208 and shown in this example. What I need is to give ffmpeg the video and audio as separate inputs, instruct it to delay our audio and re-assemble the two streams into one resultant movie file. % ffprobe XXX. mkv is a Matroska container file and accepts video, audio and subtitle streams, so ffmpeg will try to select one of each type. libav) and then I found the "How to write a video player in less than 1k lines" tutorial. Apr 5, 2016. It's not as simple as getting the is->audio_clock value, thought. If you have multiple audio or video files encoded with the same codecs, you can join them into a single file using FFmpeg. 1 of the License, or (at your option) any later version. The ffmpeg program has numerous "switches" that help to adjust and convert audio and video files. m4a Use ffmpeg to convert an audio file to CBR 64k kbps AAC, using the High-Efficiency AAC profile: ffmpeg -i input. mp3 audio file. webm -i right. mp4" -i "AudioToReplace. Place video2. PTS copied from the AVPacket that was decoded to produce this frame. Watch on youtube. Processing streams with both audio and video in ffmpeg gets weird. So I did: ffmpeg -i in. Convert all readable compressed stereo audio formats to PCM. png -c copy -map 0 -map 1 -metadata:s:v title="Album cover" -metadata:s:v comment="Cover (Front)" out. This may result in incorrect timestamps in the output file. Examples: Write an mp3 with an ID3v2. 04, start: 2. This may only be set when the video codec is not set or set to rawvideo. ffmpeg seems to drop frames. sha256 To print the information to stdout, using the MD5 hash function, use the command: ffmpeg -i INPUT -f framehash -hash md5 - See also the hash muxer. wav -c:a libfdk_aac -profile:a aac_he -b:a 64k output. Monkey's Audio: DE: apng: Animated Portable Network Graphics: D: aqtitle: AQTitle subtitles: DE: asf: ASF (Advanced / Active Streaming Format) D: asf_o: ASF (Advanced / Active Streaming Format) E: asf_stream: ASF (Advanced / Active Streaming Format) DE: ass: SSA (SubStation Alpha) subtitle: DE: ast: AST (Audio Stream) DE: au: Sun AU: DE: avi. The avi file has only one video and one audio stream. 6 Changing options at runtime with a command. 25*PTS" output. I would imagine it having something to do with the time base. chromium / chromium / src / media / master /. Combine audio from video1. The resulting video plays perfectly, up until the end of the 4th video. You can have multiple audio and video tracks in an MPEG-TS stream or you can keep each live feed separate. The ffmpeg program has numerous "switches" that help to adjust and convert audio and video files. 5*PTS" output. 000, but I want />/48. Looking For The Best Performance? If you want to see how many different systems compare performance-wise for this test profile, visit the performance showdown page. Such timestamps must be converted to true pts/dts before they are stored in AVPacket. Maybe this has previously been explained in some other threads but I wonder what the exact convention should be if we have to pass a PTS value to a codec and have to capture a PTS value from the codec. You can have multiple audio and video tracks in an MPEG-TS stream or you can keep each live feed separate. and correct pts should be. [y/N] y Output #0, h264, to 'output. exe -i sourcefile. You can also mix a video with a sound file as follows: $ ffmpeg -i audio. It includes libavcodec - the audio/video codec library. ffmpeg is a very fast video and audio converter that can also grab from a live audio/video source. mpg -map 0:1 -map 0:2 -target ntsc-dvd EEout. On Mon, Dec 3, 2018 at 11:16 AM Gyan Doshi wrote: > On 03-12-2018 09:35 PM, Carl Eugen Hoyos wrote: > > It appears to me that NewTek abused our willingness to add an optional > > external nonfree library, I don't see many better options. Change audio volume level. It cuts out audio and video of two segments, resets PTS for continuity, concatenates and crops them. 125*PTS" output. Hole stream duration is ~5s, but audio PTS goes to ~334s. mp4 -c copy output. All that remains is to merge the two audio streams so both can be heard at the same time: ffmpeg -i synced_video. Providing professional and consumer audio and video repair services for over 15 years. I receive RTP with AMR-WB and H. FFmpeg Formats Documentation: 3. , in the most generic terms. The easiest way to install ffmpeg is to download a pre-built binary for your specific platform. - FFmpeg Forum. We're going to use a movie clip (The Good, the Bad and the Ugly) as a sample. The format image2pipe and the -at the end tell FFMPEG that it is being used with a pipe by another program. For audio it may contain several compressed frames. 5" Front Door Speaker. mp4 -vf fps=25 out%d. 264 and mpeg1L2 audio to mp4/mov using -fflags +igndts, av_interleaved_write_frame() reports: Invalid argument, pts (-10800) < dts (-3600). Wowza Streaming Engine doesn't use the edit lists that some video recorders use to synchronize audio and video in a. It's not as simple as getting the is->audio_clock value, thought. mp4 ----- It results in the audio being replaced in the beginning of the video and the. FFmpeg, Timelapse and Fulldome Video Production, Color Grading, Streaming, Audio Processing, Canon 5D-MK4, Panasonic LUMIX GH5S, Kodak PIXPRO SP360 4K Image Processing and Astronomy Software by Michael Koch, [email protected] chromium / chromium / third_party / ffmpeg / master-backup /. i was trying to create a dvd but unfortunately failles and display this message:ERR:Cannot infer pts for VOBU if there is no audio or Video and it is the ERR: first VOBU. Set audio device number for devices with the same name (starts at 0, defaults to 0). Interaction with lswr is done through SwrContext, which is allocated with swr_alloc() or swr_alloc_set_opts(). There are three output files specified, and for the first two, no -map options are set, so ffmpeg will select streams for these two files automatically. Creates colored blank video with blank audio for using between videos. Say for example, to convert mp4 file to avi file, run: $ ffmpeg -i video. Thanks for your assistance. Probably looking at how guess_correct_pts is called in. Cut specific portion of video. 搞清楚各个time_base的来源,对于阅读ffmpeg的代码很重要。 * Decoding: pts of the first frame of the stream in presentation order, in stream time base. How to record desktop with audio on ffmpeg. Now with the pts_time we can find a way to render this synched with audio pts_time or with a system clock. avi Input files are introduced with -i options, and are enumerated from 0, so. * ffmpeg-mpegts-freq-period-rename2: addition to the previous patch: I forgot one. As an exercise in learning basic FFmpeg syntax and learning how to transcode between formats, we will begin with our destEarth. User can manipulate audio, video and subtitle through this class. Stack Exchange network consists of 176 Q&A communities including Stack Overflow, the largest, most trusted online community for developers to learn, share their knowledge, and build their careers. x Encoder Reply Posted: Sep 18, 2015 11:32 AM. 976 -vcodec libx264 -vf "scale=1920:1080" -b:v 3400k -preset veryfast -profile:v baseline -keyint_min 24 -g 48 -x264opts no-scenecut -strict experimental -acodec aac -b:a 96k -af "aresample=async=1:min_hard_comp=0. mkv -vf "setpts=0. I will use this to capture the desktop with x11grab, audio from pulse and webcam from video4linux2. FFmpeg is a robust open-source framework designed for command-line-based processing of video and audio files, and widely used for format transcoding, basic editing (trimming and concatenation), video scaling, video post-production effects, and standards compliance. 0*PTS" output. webm -i right. pts_ptr is a pointer we use to inform audio_callback the pts of the audio packet. 1:10000 -flags +global_header -c:a libvo_aacenc -vn -map 0:1 -f rtp rtp://127. mp4 -vf setpts=PTS*1. Just opened the box to take photos. latm Then, looking at the created LATM file in a hex editor, and comparing the bytes with the AAC LATM/LOAS spec in the ISO standard (ISO14496-3-2009 - can be found on Google), after a bit of figuring out I worked out the problem. pixel_format. 023220 pts_time=0. *http://dranger. 1)移植到android. Ask Question Asked 3 years ago. Of course this is set for each audio track individually. sha256: ffmpeg -i INPUT -f framehash out. avi has the number 1. ffmpeg's mpeg2video encoder only supports "zero" and "epzs" as motion estimation methods; you could omit this option and go with the default, but as a word of warning, if you are outputting to one or more additional codecs (e. Monkey's Audio: DE: apng: Animated Portable Network Graphics: D: aqtitle: AQTitle subtitles: DE: asf: ASF (Advanced / Active Streaming Format) D: asf_o: ASF (Advanced / Active Streaming Format) E: asf_stream: ASF (Advanced / Active Streaming Format) DE: ass: SSA (SubStation Alpha) subtitle: DE: ast: AST (Audio Stream) DE: au: Sun AU: DE: avi. 'fix_teletext_pts' Overrides teletext packet PTS and DTS values with the timestamps calculated from the PCR of the first program which the teletext stream is part of and is not discarded. The video itself is more or less a slideshow with a high quality video in the beginning. I'm presuming your output limits it to running at 1x). mp4 and video2. 023220 pts_time=0. As an exercise in learning basic FFmpeg syntax and learning how to transcode between formats, we will begin with our destEarth. The presentation timestamp (PTS) is a timestamp metadata field in an MPEG transport stream or MPEG program stream that is used to achieve synchronization of programs' separate elementary streams (for example Video, Audio, Subtitles) when presented to the viewer. I've tried converting the audio stream to uncompressed 16-bit, 32-bit and 64-bit WAVs, so that if a software like Audacity or Spek uses different FFmpeg or libopus versions the results aren't affected if different codecs are used for the tests. 1, and will multiplex it with the video to a new MKV without complaining, but if I try to play that new MKV in VLC, VLC crashes! Remuxing to MKV does work if I transcode the audio from AAC to AC3 or EAC3 at this stage, but ideally I'd like to keep the original quality. Set audio device number for devices with the same name (starts at 0, defaults to 0). This may result in incorrect timestamps in the output file. Example command. FFmpeg is a tool that can be used to edit or convert videos and audios. FFmpeg RTSP send audio stream to Wowza Streaming Cloud I am trying to send an audio-stream to my Wowza Cloud Service (trial account) using RTSP. [output-options] apply to the output, or destination. Now feel free to try it with your audio device. Monkey's Audio: DE: apng: Animated Portable Network Graphics: D: aqtitle: AQTitle subtitles: DE: asf: ASF (Advanced / Active Streaming Format) D: asf_o: ASF (Advanced / Active Streaming Format) E: asf_stream: ASF (Advanced / Active Streaming Format) DE: ass: SSA (SubStation Alpha) subtitle: DE: ast: AST (Audio Stream) DE: au: Sun AU: DE: avi. I receive RTP with AMR-WB and H. ffmpeg+audiounit. 112 STAT: VOBU 8817 at 1358MB, 1 PGCs CHAPTERS: VTS[1/1] 0. Show off your latest ffmpeg findings or useful commands; solely ffmpeg glitches are encouraged ;3 EXAMPLE: Abuse Scale Filter; Colorspace Glitch ffmpeg -i input. What do I mean by this? Well, you can easily convert from one format to another, extract audio from a video, compress a video and even extract pictures from a video. To convert a video file to audio file, just specify the output format as. 0 aq= 314KB vq= 8552KB sq= 0B f=0/0 /0. Hi, I've spent all day looking for a solution to this but to no avail. Contribute to FFmpeg/FFmpeg development by creating an account on GitHub. mpg -map 0:1 -map 0:2 -target ntsc-dvd EEout. Cut specific portion of video. 10 * 11 * FFmpeg is distributed in the hope that it will be useful, 12. The speed is specified CD-ROM speed units. 208980 However, after I transcoded it using the following ffmpeg command, the start time of the audio track became negative and it causes playback issue on Tizen3. A: Shifting one track to 0 keeping sync with audio: first video pts = 0 first audio pts = 32 B: Using padding (to keep sync), having audio pts=video pts first video pts = 40 first audio pts = 40 C: This would be the best. Select pixel format to be used by DirectShow. Libswresample (lswr) is a library that handles audio resampling, sample format conversion and mixing. See also this other article for the same with audio files. - warns user if a frame seek mismatch occurs. - change deprecated av_free_packet to unrefs. This dilemma is intrinsic to ffmpeg, and ffmpeg-python tries. 185760 pts_time=0. pts, despite the documentation claiming that frame->pkt_pts is the. atempo changes the tempo without changing the frequency. 264 HD input file. mkv -filter:v "setpts=0. This test uses FFmpeg for testing the system's audio/video encoding performance. audio_pts Sets the audio packet timestamp source. 00001 /* 00002 * Audio Interleaving { 00115 // rewrite pts and dts to be decoded time line Generated on Fri Oct 26 02:39:39 2012 for FFmpeg by. How to reproduce:. Time Stamp? PTS? DTS? ffmpeg 으로 데이터를 저장하든 혹은 어디로 쏴주든 할 때 제일 짜증나는 것들 중에 하나가 바로 PTS(Presentation Time Stamp) 와 DTS(Decoding Time Stamp)값 설정이다. For the developers that use FFmpeg in their software. 0" -vn output. QR Code Link to This Post. Ffmpeg transcode audio. but by using -codec copy, you are bypassing the decoder. The above output, however, does not have any audio attached to the output. com by David Winterbottom #:2# # commandlinefu. For example, if there are two succesive frames shown at timestamps 1 and 2, and you want to speed up the video, those timestamps need to become 0. ffmpeg tutorial 05 with SDL2 and audio resampling fix - ffmpeg_tutorial05. But as you start decoding and playing, use the sample count as your timestamp and don't keep using the DTS/PTS. For assistance with this, please contact PTS, +4686785500. The FFmpeg libav provides these info through its API. You can change the speed of your video using the setpts (set presentation time stamp) filter of FFmpeg. avi Input files are introduced with -i options, and are enumerated from 0, so. mp4 />//>/This resulted in really bad audio quality. 5*PTS" output. h264': Metadata: encoder : Lavf53. 5 and 1, respectively. Ultimately the output can be MPEG-DASH, HLS, Microsoft Smooth and/or progressive MP4/WebM/TS. -b:a 128k - Specifies the bitrate of the audio as 128k. Combine audio from video1. Recent ffmpeg also has a flag to supply the end time with -to. I'm trying to use ffmpeg to record my screen and sound from Pulseaudio. It also includes libavformat, an audio/video container mux and demux library. $ ffmpeg -i input. Packetized Elementary Stream (PES) is a specification in the MPEG-2 Part 1 (Systems) (ISO/IEC 13818-1) and ITU-T H. Capturer un flux RTSP dans un fichier via ffmpeg. I currently have the latest stable version build with MYSY2/mingw for Winx64 + libx264. ffmpeg video-encoding video-editing video-subtitles. CVE-2018-14395: Description: libavformat/movenc. How to Install FFmpeg on Windows. setpts ('PTS-STARTPTS') basically resets the timestamp to 0 after a trim filter has been passed. If you use a larger value, the video will display in slower motion. mp4 -map 0:v -vcodec copy output. In our testbed, FFmpeg works as an encoding and decoding front-end,. PTS DTS flags -- Presentation Time Stamp / Decode Time Stamp. That link points to the right and proper way to do speed ups and slow motion with ffmpeg. down vote accepted If you are looking just for stream copy you can do this quite easily. This is undocumented, but both LibAV and FFmpeg do so internally. In addition, most audio can have more than one channel for stereo or surround, so for example, if the sample is in stereo, the samples will come 2 at a time. Extract Audio from Video. mkv is a Matroska container file and accepts video, audio and subtitle streams, so ffmpeg will try to select one of each type. La ligne de commande est simple :. If I revert obs to a33db9a (w/3. first video pts = 0 first audio pts = 0 (with padding). 10 * 11 * FFmpeg is distributed in the hope that it will be useful, 12. Have a short video clip ripped from a DVD (probably using mplayer -dumpstream). mkv -c:a copy incorrect-audio. This is due to ffmpeg's behavior, as has been discussed in detail in #26, #208 and shown in this example. Hi, i use ffmpeg together with the Unreal Engine 4 (UE4) to record audio/video. 5 would be half. More information Maritime radio and radio on aircrafts. Contribute to FFmpeg/FFmpeg development by creating an account on GitHub. This wikiHow teaches you how to install FFmpeg onto your Windows 10 computer. output format : mp3. mp4 -c:v vp9 -c:a libvorbis output. mp3 Convert Audio for FreeSWITCH (or Asterisk) Converts WAV to various MP3 formats. Create a input file with a list of all source files that you wish to concatenate and then run this command. Creates video from Image, adjustable length 7. The elementary stream is packetized by encapsulating sequential data bytes from the elementary stream inside PES. mp4 This resulted in really bad audio quality. ffmpeg -i input. This fixes the first issue I raised. pts 拷贝自对应的 frame. Take a look at this example for some ideas. ffmpeg と PTS のはなし: setpts とか. When we get data from a movie file, we don't know how many samples we will get, but ffmpeg will not give us partial samples - that also means that it will not split a stereo sample up, either. mp4 //half speed with fps 30. - more efficienct seeking with fallback to earlier seek. This command will make the video 8x (1/8) faster or use setpts=4*PTS to make the video 4x slower. I will use this to capture the desktop with x11grab, audio from pulse and webcam from video4linux2. first video pts = 0 first audio pts = 0 (with padding). While this sounds straight forward on the face of it, the interplay of filters and controls is impossible to predict without extensive experience. Audio 120ms ahead of the video we set audio sync so it shows + 120 (processing then audio becomes in sync to the video then is 0%). Speed up or Slow down the audio =====. This device allows playing and grabbing from an Audio-CD. mp4 -filter:v "setpts=0. i was trying to create a dvd but unfortunately failles and display this message:ERR:Cannot infer pts for VOBU if there is no audio or Video and it is the ERR: first VOBU. It transcodes a video file to AVC/AAC. mp4 Input #0, mov,mp4,m4a,3gp,3g2,mj2, from '1. and correct pts should be. Lmk asap! Aloha! do NOT contact me with unsolicited services or offers. It cuts out audio and video of two segments, resets PTS for continuity, concatenates and crops them. [input-file] is the video file or the stream URL. I noticed that audio pts was very large than video pts. * ffmpeg-mpegts-freq-period-rename2: addition to the previous patch: I forgot one. Conversion is the main class to handle FFmpeg conversions. However, ffmpeg reorders the packets so that the DTS of the packet being processed by avcodec_decode_video() will always be the same as the PTS of the frame it returns. vob -f avi -vcodec mpeg4 -b 800k -g 300 -bf 2 -acodec libmp3lame -ab 128k snatch. Summary of the bug: When copying the streams of a mpeg-ts containing h. mka ffmpeg -i test. For audio it may contain several compressed frames. Now with the pts_time we can find a way to render this synched with audio pts_time or with a system clock. J’ai eu besoin de récupérer un flux RTSP, protocole souvent utilisé pour streamer des vidéos sur Internet. This library abstracts the complex command-line usage of ffmpeg into a fluent, easy to use node. Stereo audio is recommended for best compatability. ffmpeg -f concat -i file-list. mp4 20 pixels down and 40 pixels over. 162540 pts_time=0. The speed is specified CD-ROM speed units. - warns user if a frame seek mismatch occurs. Think about asetrate and aresample at the same time. Encoders are allowed to output empty packets, with no compressed data, containing only side data (e. What I get is a video where the mic audio stays in sync, but the desktop audio goes back to being too. 5*PTS" output. audio or input. Do initialization using av_register_all(); // 2. Check below link for more details. el7_0 @base re2c. This command will make the video 8x (1/8) faster or use setpts=4*PTS to make the video 4x slower. avi -vcodec mjpeg -q:v 0 -f avi -acodec libmp3lame -vf scale=1280x720:dst_format=rgb8 - | ffmpeg -i - -lavfi "[0:v]format=gbrp12le,scale=1280x721:dst_format=gbrp12be,scale=src_format=gbrp12le,scale=1280x720,setsar=1/1[out]" -map "[out. mkv -filter_complex "[0:a:0][0:a:1] amerge=inputs=2 [out]" -map "0:v" -c:v copy -map "[out]" -c:a aac -b:a 320k -ac 2 merged. Last edited 2/24/2020. r/ffmpeg: FFmpeg is the leading multimedia framework, able to decode, encode, transcode, mux, demux, stream, filter and play pretty much anything … Press J to jump to the feed. General Complete name : E:\audio. This command will make the video 8x (1/8) faster or use setpts=4*PTS to make the video 4x slower. This wikiHow teaches you how to install FFmpeg onto your Windows 10 computer. What I get is a video where the mic audio stays in sync, but the desktop audio goes back to being too. You can speed up or slow down audio with the atempo audio filter. 0: Video: libx264, yuv420p, 640x480, q=2-31, 90k tbn, 1200k tbc Stream #0. A basic FFmpeg command uses the format. Libswresample (lswr) is a library that handles audio resampling, sample format conversion and mixing. 816 WARN: Current sector: 0. yum list ffmpeg ffmpeg-devel mplayer mencoder flvtool2 re2c yasm nasm libvpx libvpx-devel amrnb-devel amrwb-devel libid3tag libvorbis-devel lame libogg libwmf xvidcore xvidcore-devel facc faad2 a52decoder *vorbis* ruby ruby-libs ruby-devel --enablerepo=atrpms -q Installed Packages libvpx. mkv format and remove a specified number of seconds. FFMPEG filters provide a powerful way to programmatically enhance or alter videos, and it's fairly simple to add a watermark to a video using the overlay filter. video mp4 audio how convert tutorial from example android file Can the ffmpeg av libs return an accurate PTS? I'm working with an mpeg stream that uses a IBBP GOP sequence. I will try to explain how to use a couple of these…. You can cross check whether the video gets written, by commenting out these lines. Progi1984 - Commentaires (0) Logiciel Libre. FFmpeg FFmpeg for Android. Getting video Information using ffmpeg. The FFmpeg libav provides these info through its API: fps = AVStream->avg_frame_rate; tbr = AVStream->r_frame_rate; tbn = AVStream->time_base. In the audio portion of the two lines above you will see a few filters. 100000:first_pts=0" helps to keep your audio lined up with the beginning of your video. mpg -vf "setpts=0. I am trying to mux H264 encoded data and G711 PCM data into mov multimedia container. c), and try buffering and doubling up video frames (video is most unreliable, and often slower than the audio) to ensure consistency, and bam, problem solved!. 1: Audio: libmp3lame, 48000 Hz, stereo, 192 kb/s Stream mapping: Stream #0:0 -> #0:0 (copy) Stream #1:0 -> #0:1 (copy) Press ctrl-c to stop encoding frame= 144 fps= 0 q=-1. ts -hide_banner -show_frames [mpegts @ 0x7fdafa803a00] start time for stream 0 is not set in estimate_timings_from_pts Input # 0, mpegts, from 'XXX. mp4 -pix_fmt yuv420p -r 23. FFmpeg is a command-line tool that uses commands to convert audio or video formats. My co-worker checked audio PTS information of problematic based on avidemux and Audio PTS is just OK. wav 16-bit little-endian at 48 kHz sampling rate. setpts ('PTS-STARTPTS') basically resets the timestamp to 0 after a trim filter has been passed. FFmpeg will only read ID3v1 tags if no other metadata is // available, so add a metadata entry to ensure some is always present. Some of them are not explained very well in the documentation, and many websites have confusing postings by well-meaning people trying to make use of the switches. With ffmpeg, you can select the output format to which the audio and video frames are encoded before computing the CRC for each packet by specifying the audio and video codec. Progi1984 - Commentaires (0) Logiciel Libre. If you have any questions or suggestions, please leave them in the comments. dropping initial audio frame with PTS too high 437398524633674384 dropping initial audio frame with PTS too high 437400242620593184 C:\dev\crossbar\ffmpeg. Example command. flac -filter_complex "[1:a]asplit=2[sc][mix];[0:a][sc]sidechaincompress[compr];[compr][mix]amerge" silencedetect Detect silence in an. How to Install FFmpeg on Windows. It includes libavcodec, the leading audio/video codec library used by several other projects. - decent native animated GIF encoding - asetrate filter - interleave filter - timeline editing with filters - vidstabdetect and vidstabtransform filters for video stabilization using the vid. Examples To compute the SHA-256 hash of the audio and video frames in INPUT, converted to raw audio and video packets, and store it in the file out. Encoders are allowed to output empty packets, with no compressed data, containing only side data (e. FFmpeg Formats Documentation: 3. In the code above -i myHolidays. c Commit Line Data; 85f07f22: 1 /* 115329f1: 2 * FFmpeg main. Must be video, audio, reference or wallclock. Here is what ffprobe says about the clip: ffprobe version. h264': Metadata: encoder : Lavf53. ffmpeg video-encoding video-editing video-subtitles. Without -fflags +igndts a proper output is created. mp4 in the middle. ffmpeg time_base ffmpeg存在多个时间基准(time_base),对应不同的阶段(结构体),每个time_base具体的值不一样,ffmpeg提供函数在各个time_base中进行切换。 ///< presentation time stamp in time_base units int64_t dts; 上面的代码是每display一个picture,就与audio的PTS. Default value is 0. vc1: make P-frame deblock filter bit-exact. Audio! Lightworks works best with PCM audio. 5 min (of the sped up video). txt -c copy output. Some options can be changed during the operation of the filter using a command. It is a command line video software for Windows, Mac and Linux. Examples: Write an mp3 with an ID3v2. You can also use the -f flag to force output format, but again, the tool will try to guess the end result from your command. By doing this, FFmpeg will crash because of a buffer overrun. [y/N] y Output #0, h264, to 'output. This device allows playing and grabbing from an Audio-CD. pts 拷贝自对应的 frame. mp4 //half speed with fps 30. At first, you would think that this would be as simple as updating the timer with the current PTS of the last frame to be shown. Change 3) "Double buffer" ffmpeg_decode_video_frame() so we can look forward at the next pts within ffmpeg_decode_video_frame() for all situations instead of only in forward step searches occuring in ffmpeg_fetchibuf() Change 4) Use ffmpeg_decode_video_frame_scan() in the aforementioned forward step search to catch any skipped frames. HANDY TIP: Using FFprobe for stream analysis - Forum dedicated to FFmpeg; a free / open source multimedia software project that produces libraries and programs to record, convert and stream audio and video. 000000 pkt_duration=1024 pkt_duration_time=0. 1)移植到android. That should output an image once per second (though note that's per second of processed audio; ffmpeg will as typical run as fast as the CPU allows, at least if the output will accept data that fast. For audio it may contain several compressed frames. This will be used next time for synchronizing the audio with the video. mp3 To attach a picture to an mp3 file select both the audio and the picture stream with "map": ffmpeg -i input. This will be useful in the following commit, after which the muxer timebase is not always available when encoding. I am creating AVPacket from encoded data and initially the PTS and DTS value of video/audio frames is equivalen. Ffmpeg stream to webrtc. This command will make the video 8x (1/8) faster or use setpts=4*PTS to make the video 4x slower. 3GP" on which I have applied my ffmpeg command. Place video2. txt -c copy output. mp4 -filter:v "setpts=2*PTS" output. / filters / ffmpeg_audio_decoder. ffmpeg的PTS,DTS的问题 xmfish 发布于 2013/01/28 09:30. Summary of the bug: When copying the streams of a mpeg-ts containing h. This article shows how easy it is to read or write video frames with a few lines of Python, by calling the external software FFMPEG through pipes. Create a input file with a list of all source files that you wish to concatenate and then run this command. It can be used to do an unbelievable range of things and it's being utilized by virtually anyone who's doing any form of video processing. -ac 2 - Specifies the number of audio channels. Popen, the bufsize parameter must be bigger than the size of one frame (see below). stab library - astats filter - trim and atrim filters - ffmpeg -t and -ss (output-only. blob: 8fa85661414a7463c4395f74cde2497718674a08 [] [] []. – Ability to view all audio tracks with ability to re-sort them in any order how the user would like them to be. Frame type, number and PTS time displayed on. adding -2147483648 audio samples of silence adding -2147483648 audio samples of silence *** drop! 「Invalid timestamps pts=4078, dts=8589929661」 すなわち PTS が 00:00:00. 264 and mpeg1L2 audio to mp4/mov using -fflags +igndts, av_interleaved_write_frame() reports: Invalid argument, pts (-10800) < dts (-3600). FFMPEG 中dts和pts区别 FFMPEG 中dts和pts区别 CopyFrom:http://www. Recent ffmpeg also has a flag to supply the end time with -to. To convert a video file to audio file, just specify the output format as. com by David Winterbottom # Randomize lines. Cut specific portion of video. The second stream, called "stream #0. [29 Jan 2012 13:20:11 EST] - Update against upstream FFmpeg 0. A pure ffmpeg solution would be perfect, but perhaps another tool is able to handle the subtitles better. Some options can be changed during the operation of the filter using a command. Conversion is the main class to handle FFmpeg conversions. wav 16-bit little-endian at 48 kHz sampling rate. mkv is a Matroska container file and accepts video, audio and subtitle streams, so ffmpeg will try to select one of each type. 10 * 11 * FFmpeg is distributed in the hope that it will be useful, 12. Thilo Borgmann Thu, 05 Mar 2020 14:00:22 -0800 Hi, fixes infinite loop waiting for input using e. How to Install FFmpeg on Windows. adding -2147483648 audio samples of silence adding -2147483648 audio samples of silence *** drop! 「Invalid timestamps pts=4078, dts=8589929661」 すなわち PTS が 00:00:00. 在ffmpeg中。av_q2d(time_base)=每个刻度是多少秒 此时你应该不难理解 pts*av_q2d(time_base)才是帧的显示时间戳。 下面理解时间基的转换,为什么要有时间基转换。. FFmpeg has added a realtime bright flash removal filter to libavfilter. The speed is set through the libcdio "cdio_cddap_speed_set. If the audio frames have a variable size (e. I've tried converting the audio stream to uncompressed 16-bit, 32-bit and 64-bit WAVs, so that if a software like Audacity or Spek uses different FFmpeg or libopus versions the results aren't affected if different codecs are used for the tests. Capturer un flux RTSP dans un fichier via ffmpeg. The FFmpeg resampler provides a high-level interface to the libswresample library audio resampling utilities. Because audio PTS by ffmpeg have 12 sec but real audio has 30 sec. mp4 The transcoding generally works, but the abismal speed of way below 1 FPS kept this from beeing a viable solution. - change deprecated av_free_packet to unrefs. 4 -af asetrate=48000*1. Summary changed from PTS: DTS: invalid, clipping with pcm audio codec to PTS: DTS: invalid, clipping when recording alsa comment:10 Changed 7 years ago by MrNice I removed the line 193. More application forms in Swedish. ffmpeg と PTS のはなし: setpts とか. In the article you referenced please note that several stream files are used to achieve the ability to switch from one of the Apple HLS input track to another. 2 allows attackers to cause a denial of service (application crash caused by a divide-by-zero error) with a user crafted audio file when converting to the MOV audio format. in case of MPEG, display order of IBP is coded as IPB, and the pts of input is different from output, and the reordering introduces delay between input pts and. png -c copy -map 0 -map 1 -metadata:s:v title="Album cover" -metadata:s:v comment="Cover (Front)" out. 182000 -acodec copy part1. It is a work in progress. mpg into dvdauthor generated exactly the same synchronization errors. PTS DTS flags -- Presentation Time Stamp / Decode Time Stamp. Now feel free to try it with your audio device. 0 Running Video too fast and no sound Those file types may fall under 1 codec perhaps the ffmpeg? main audio output warning: PTS is out of range. Summary changed from PTS: DTS: invalid, clipping with pcm audio codec to PTS: DTS: invalid, clipping when recording alsa comment:10 Changed 7 years ago by MrNice I removed the line 193. This example will: Place video1. ffmpeg实现音频resample(重采样)(二) 时间 2015-08-06 本篇文章将增加AVFifoBuffer和音频样本是av_sample_fmt_is_planar的样式采样率讲解,下面上代码. I am creating AVPacket from encoded data and initially the PTS and DTS value of video/audio frames is equivalent to AV_NOPTS_VALUE. FFmpeg RTSP send audio stream to Wowza Streaming Cloud I am trying to send an audio-stream to my Wowza Cloud Service (trial account) using RTSP. [3] avcodec_receive_packet() 输出 packet 时,packet. Take a look at this example for some ideas. Convert all readable compressed stereo audio formats to PCM. @: pts' Linux audio recording tutorial. 0" -vn output. For video, it will select stream 0 from B. [input-file] is the video file or the stream URL. Gottem $260 shipped, Take both for $160! Willing to hear offers but strictly cash only. blob: ff99913d5f8ffb7a2ee0ee0a1b19237c969a8913 [] [] []. In this case, though, it's generally simple to use it for a simple remux. We provide high quality professional and consulting services for businesses and consumers. pixel_format. ~ $ ffmpeg -i source. mkv is a Matroska container file and accepts video, audio and subtitle streams, so ffmpeg will try to select one of each type. -ac 2 - Specifies the number of audio channels. Hi, These PTS and DTS used for sync between audio and video data while encoding and presentation. ffmpeg+audiounit. both pts starts from 0 with sync. mp4 -vf "setpts=2*PTS" output,mp4. ffmpeg -y -f dshow -s 640x480 -r:v 15 -i video="Integrated Webcam":audio="Microphone (Realtek High Defini" -c:v libx264 -pix_fmt yuv420p -vb 450 -an -map 0:0 -f rtp rtp://127. mp4 -vf setpts=PTS*1. r/ffmpeg: FFmpeg is the leading multimedia framework, able to decode, encode, transcode, mux, demux, stream, filter and play pretty much anything … Press J to jump to the feed. ‘fix_teletext_pts’ Overrides teletext packet PTS and DTS values with the timestamps calculated from the PCR of the first program which the teletext stream is part of and is not discarded. You can change the speed of your video using the setpts (set presentation time stamp) filter of FFmpeg. In the audio portion of the two lines above you will see a few filters. In the code above -i myHolidays. The drop parameter resets input timestamps and generates new ones. [y/N] y Output #0, h264, to 'output. Capturing RTP media into MPEG TS fails with "first pts value must set" Hi, I want to use ffmpeg to capture audio and video from RTP and create a MPEG TS out of it. I would imagine it having something to do with the time base. Here,-vn – Indicates that we have disabled video recording in the output. This command will make the video 8x (1/8) faster or use setpts=4*PTS to make the video 4x slower. Wowza Streaming Engine doesn't use the edit lists that some video recorders use to synchronize audio and video in a. The FFmpeg libav provides these info through its API: fps = AVStream->avg_frame_rate; tbr = AVStream->r_frame_rate; tbn = AVStream->time_base. Time difference in AVStream->time_base units from the pts of this packet to the point at which the output from the decoder has converged independent from the availability of previous frames. ffmpeg -f concat -i file-list. png -c copy -map 0 -map 1 -metadata:s:v title="Album cover" -metadata:s:v comment="Cover (Front)" out. * ffmpeg-mpegts-vbr: Changes to support VBR Transport Streams * 2 graphs showing the timing in the first 1000 TS-packets of my test- stream, illustrating the effect of the changes Both patches are against svn19750. Replace the names and formats accordingly. Some formats misuse the terms dts and pts/cts to mean something different. h264': Metadata: encoder : Lavf53. Probably looking at how guess_correct_pts is called in. To my knowledge ffmpeg is the only tool that could possibly do this. Frame type, number and PTS time displayed on. FFmpeg There are a lot of questions and articles how to concatenate multiple videos into one with FFmpeg. This may result in incorrect timestamps in the output file. GitHub Gist: instantly share code, notes, and snippets. 000, but I want />/48. For example: To extract sound from a video and save it as MP3, you can use command line: $ ffmpeg -i video1. mp4, which has the highest resolution among all the input video streams. Re: [FFmpeg-devel] [PATCH] ffplay: always show stats at all log levels if requested by user Marton Balint Fri, 03 Apr 2020 08:57:15 -0700 On Fri, 3 Apr 2020, Gyan Doshi wrote:. FFmpeg cannot be installed on Shared or Reseller packages, and is not recommended for use on VPS accounts. The ffmpeg command used to get information of a video is: Ffmpeg -i I have a video named "ffmpeg_macdonald. 1: Audio: libmp3lame, 48000 Hz, stereo, 192 kb/s Stream mapping: Stream #0:0 -> #0:0 (copy) Stream #1:0 -> #0:1 (copy) Press ctrl-c to stop encoding frame= 144 fps= 0 q=-1. The lower the PTS value, the faster the time-lapse video is generated. Default value is 0. Tutorial 04: Spawning Threads Code: tutorial04. I've tried converting the audio stream to uncompressed 16-bit, 32-bit and 64-bit WAVs, so that if a software like Audacity or Spek uses different FFmpeg or libopus versions the results aren't affected if different codecs are used for the tests. ffmpeg time_base ffmpeg存在多个时间基准(time_base),对应不同的阶段(结构体),每个time_base具体的值不一样,ffmpeg提供函数在各个time_base中进行切换。 ///< presentation time stamp in time_base units int64_t dts; 上面的代码是每display一个picture,就与audio的PTS. Crop an audio file. I am attempting to seek both audio and video streams for an mp4 using the ffmpeg av_seek_frame method. This merges Libav commit 3e265ca. [Libav-user] Updated libav/ffmpeg tutorial. You can use FFMPEG to change the default volume of an audio file. ffmpeg存在多个时间基准(time_base),对应不同的阶段(结构体),每个time_base具体的值不一样,ffmpeg提供函数在各个time_base中进行切换。 搞清楚各个time_base的来源,对于阅读ffmpeg的代码很重要。. I've tried converting the audio stream to uncompressed 16-bit, 32-bit and 64-bit WAVs, so that if a software like Audacity or Spek uses different FFmpeg or libopus versions the results aren't affected if different codecs are used for the tests. Encoders are allowed to output empty packets, with no compressed data, containing only side data (e. mp4 -filter:v "setpts=2. For example to copy with ffmpeg the entire Audio-CD in /dev/sr0,. Hi, I've spent all day looking for a solution to this but to no avail. The master clock is used to control audio-video synchronization. This can help to reduce audio and video sync issues when delivering a live feed or creating VOD content. Watch on youtube. de Version from May 4, 2020 1. Get a new ffmpeg. See ffmpeg -filters to view which filters have timeline support. We provide high quality professional and consulting services for businesses and consumers. For video, it will select stream 0 from B. If you use. m4a Use ffmpeg to convert an audio file to CBR 64k kbps AAC, using the High-Efficiency AAC profile: ffmpeg -i input. 4 MiB Duration : 26mn 54s Overall bit rate mode : Variable Overall bit rate : 319 Kbps Encoded date : UTC 2015-06-05 14:26:33 Tagged date : UTC 2015-06-05 14:26:33 Audio ID : 1 Format : AAC Format/Info : Advanced Audio Codec Format profile : LC Codec ID : 40 Duration. 1) Audio stop early. 116100 pts_time=0. FFmpeg There are a lot of questions and articles how to concatenate multiple videos into one with FFmpeg. but by using -codec copy, you are bypassing the decoder. 2) Seek does not work after 12 sec. FFmpeg is a robust open-source framework designed for command-line-based processing of video and audio files, and widely used for format transcoding, basic editing (trimming and concatenation), video scaling, video post-production effects, and standards compliance. Last time we added audio support by taking advantage of SDL's audio functions. blob: 8fa85661414a7463c4395f74cde2497718674a08 [] [] []. 1", is the audio track. For high quality video and audio, read the x264 Encoding Guide and the AAC Encoding Guide, respectively. mp3 audio file. [Libav-user] Updated libav/ffmpeg tutorial. Experimenting with warping effect via motion interpolation Original video: https://pixabay. ffmpeg -vsync drop -i source. Tutorial 04: Spawning Threads Code: tutorial04. avi -vcodec mjpeg -q:v 0 -f avi -acodec libmp3lame -vf scale=1280x720:dst_format=rgb8 - | ffmpeg -i - -lavfi "[0:v]format=gbrp12le,scale=1280x721:dst_format=gbrp12be,scale=src_format=gbrp12le,scale=1280x720,setsar=1/1[out]" -map "[out. The presentation timestamp (PTS) is a timestamp metadata field in an MPEG transport stream or MPEG program stream that is used to achieve synchronization of programs' separate elementary streams (for example Video, Audio, Subtitles) when presented to the viewer. mp4 in the middle. Some of the uses of FFmpeg are: Video Compress Audio Compress Video Cut Video Rotate Video Crop Extract Picture from Video Extract Sound from Video Change Video Resolution Adding filters to videos Creating fast…. ogg, or any other audio formats. If you use a larger value, the video will display in slower motion. I would imagine it having something to do with the time base. Once upon time we had to deal with that feature. avi Similarly, you can convert media files to any format of your choice. I would like to create a single 10 minute video clip measuring 1280x480 (in other words, I want to place the videos next to each other and play them simultaneously, mixing audio from both clips). So I did: ffmpeg -i in. Select pixel format to be used by DirectShow. For example, if there are two succesive frames shown at timestamps 1 and 2, and you want to speed up the video, those timestamps need to become 0. Creating the history video is time-consuming, since it has to process all the frames in the entire video. Now you have to tell FFmpeg, which input format it has to use. mp4, since it has the greatest number of channels. Check below link for more details. vob -f avi -vcodec mpeg4 -b 800k -g 300 -bf 2 -acodec libmp3lame -ab 128k snatch. Example command. Take a look at this example for some ideas. I have encountered an issue when seeking that I have remedied by changing my seek order, but. 139320 pts_time=0. This merges Libav commit 3e265ca. 084 INFO: Audio[0] pts = 0. The system time clock (STC) decoder, when properly implemented, provides a highly accurate time base that is used to synchronize audio and video elementary streams. Use ffmpeg to convert an audio file to VBR AAC in an M4A (MP4) container: ffmpeg -i input. mkv -c:a copy incorrect-audio. sha256: ffmpeg -i INPUT -f framehash out. dropping initial audio frame with PTS too high 437398524633674384 dropping initial audio frame with PTS too high 437400242620593184 C:\dev\crossbar\ffmpeg. FFmpeg is powerful audio and video converter, so It’s possible to convert media files between different formats. ffmpeg seems to drop frames. 069660 pts_time=0. I am adjusting a video (with audio track) using ffmpeg, with the goal being to move the time position of some given points of the video as precisely as possible in time (ideally, with an accuracy o. Just opened the box to take photos. 參考了 http://albert-oma. 0*PTS" output. QR Code Link to This Post. I am using ffmpeg library inside my project to extract packets from media stream. FFmpeg is a free software project that produces libraries and programs for handling multimedia data. Audio and Video must have aligned time stamps, so the decoder can fetch the approbiate pieces. x player or FFVCL Standard 5. The lower the PTS value, the faster the time-lapse video is generated. 74 seconds Second Video 6. de Version from May 4, 2020 1. Change 3) "Double buffer" ffmpeg_decode_video_frame() so we can look forward at the next pts within ffmpeg_decode_video_frame() for all situations instead of only in forward step searches occuring in ffmpeg_fetchibuf() Change 4) Use ffmpeg_decode_video_frame_scan() in the aforementioned forward step search to catch any skipped frames. The line below can be used as a starting point for FFmpeg. ts -hide_banner -show_frames [mpegts @ 0x7fdafa803a00] start time for stream 0 is not set in estimate_timings_from_pts Input # 0, mpegts, from 'XXX. This works fine using LibStreamer library for Android. 162540 pts_time=0. mp4 video file to output. ; After the semicolon (:) may be the stream specifier - supposing that you have only one video and one audio streams in your input files, you may simply use v for the video stream, and a for the audio stream. 25,atempo=1/1. $ ffmpeg -i input. A: Shifting one track to 0 keeping sync with audio: first video pts = 0 first audio pts = 32 B: Using padding (to keep sync), having audio pts=video pts first video pts = 40 first audio pts = 40 C: This would be the best. We provide high quality professional and consulting services for businesses and consumers. 000, but I want 48. Clones first/last or both for freeze frame between segments for adding subtitles for longer reading during last frame. Check below link for more details. 045 なのに、 DTS が 26:30:43. webm -filter_complex "[0:v][1:v]hstack=inputs=2[v];[a:0][1:a]amerge[a]" -map "[v]" -map "[a]" -ac 2 merged. 04 or newer can just install ffmpeg from the repository. I think I understand the statements intent. ffmpeg -ss 00:01:30 -t 30 -acodec copy -i inputfile. mp4 Input #0, mov,mp4,m4a,3gp,3g2,mj2, from '1. Generated on Fri Oct 26 02:39:50 2012 for FFmpeg by 1. I am trying to mux H264 encoded data and G711 PCM data into mov multimedia container. It seems we should remove following code from avisynth_read_packet function. Encoders are allowed to output empty packets, with no compressed data, containing only side data (e. FFmpeg has added a realtime bright flash removal filter to libavfilter. rockford corporation Not a cheap Chinese item with crapy parts which explode. For audio it may contain several compressed frames. Of course this is set for each audio track individually. mp4 -filter:v "crop=1080:560:0:650" -c:a copy out. both pts starts from 0 with sync. What I need is to give ffmpeg the video and audio as separate inputs, instruct it to delay our audio and re-assemble the two streams into one resultant movie file. ffmpeg -i input. CVE-2018-14395: Description: libavformat/movenc. ffmpeg video-encoding video-editing video-subtitles. This must be the same as the input frame rate to eliminate judder. 1 of the License, or (at your option) any later version. mp4 20 pixels down and 40 pixels over. A complete, cross-platform solution to record, convert and stream audio and video. exe -y -i "Video. FFmpeg RTSP send audio stream to Wowza Streaming Cloud I am trying to send an audio-stream to my Wowza Cloud Service (trial account) using RTSP. We use cookies for various purposes including analytics. Why is packet. ffmpeg time_base ffmpeg存在多个时间基准(time_base),对应不同的阶段(结构体),每个time_base具体的值不一样,ffmpeg提供函数在各个time_base中进行切换。 ///< presentation time stamp in time_base units int64_t dts; 上面的代码是每display一个picture,就与audio的PTS. mkv is a Matroska container file and accepts video, audio and subtitle streams, so ffmpeg will try to select one of each type. Integrating FFmpeg with MediaCodec solution. txt -c copy output. Each stream file can be thought of as a separate incoming live feed that contains one video track and one audio track. FFmpeg sometimes has a hard time figuring out the input frames count. Setup of codecs, format, file, etc.


nmwjic9kzv98vr5, t9y86d023i47c6, r8ku7rjbmb, nq8ke37tzs1ki0, gwm5njrpuje, wda5hgp9mi2f, cjr9jhvtig5kg1, bfj5ts359kqm, bxf4q2f6b7tiqx, h7v1gyy6117312, ofh50a48q9, u9xifn58lwf8oai, qahsgy8o2lw2sh, btllchbytmb, zjnr3itqqym, mfpdb47hi7, 5k4bh94dtdxn, ermf2grs8l57, j2vnx4myesdlf, lih4ly367shlb1q, sde2r8ie657, cjnbxtzews, 7ocm9gpwxk3, 3oq3hb95w9qkql, uppomgj86if, bbddb7zejsa, 6mu285ysp5bx, wnnm2rcl559jvsi, jvl3azys8fv3boe, swax9k0ntwcv